[Login] or [Signup]
Login
Username:
Password:
[Signup]
[Recover Account]


Poll


You must be logged in to view polls



Torrent Details For "Fighter (2011) - Bengali Movie - 2CD - HDTV Rip[x264 - AC3(5.1Ch)]"

Fighter (2011) - Bengali Movie - 2CD - HDTV Rip[x264 - AC3(5.1Ch)]

Download this torrent | Magnet Download
Health:
Seeds: 14
Leechers: 28
Completed:
Last Checked: 10-11-2018 11:32:14
External Torrent
Update Stats
Download Magnet


Poster


iMDB
Title: Fighter
Year: 2011
Runtime: 160 minutes
Votes: 74
Rating: 6.9/10
Language: Bengali
Director: Rabi Kinagi

Produced By: Amit Jumrani,
Music: Indraadip Dasgupta
Cast:
Ferdous Ahmed as A.C.P Bose
Joy Badlani as Indu's Father
Gargi Banerjee as Newsreader
Biswanath Basu as
Biswajit Chakraborty as Surya's Father
Biplab Chatterjee as D.I.G
Locket Chatterjee as A.C.P Bose's Wife
Srabanti Chatterjee as Indu
Sumit Ganguly as
Jeet as Surya


Watch-Free-HD     Download

Details
Name:Fighter (2011) - Bengali Movie - 2CD - HDTV Rip[x264 - AC3(5.1Ch)]
Description:
   Fighter (2011) - Bengali Movie - 2CD -
HDTV Rip[x264 - AC3(5.1Ch)]
 





General
Format                                   : Matroska
Format version                           : Version 4
File size                                : 1.40 GiB
Duration                                 : 2 h 44 min

Video
ID                                       : 1
Format                                   : AVC
Format/Info                              : Advanced Video Codec
Format profile                           : [email protected]
Format settings                          : CABAC / 4 Ref Frames
Format settings, CABAC                   : Yes
Format settings, RefFrames               : 4 frames
Codec ID                                 : V_MPEG4/ISO/AVC
Duration                                 : 2 h 44 min
Bit rate                                 : 1 028 kb/s
Width                                    : 720 pixels
Height                                   : 304 pixels
Display aspect ratio                     : 2.35:1
Frame rate mode                          : Constant
Frame rate                               : 25.000 FPS
Color space                              : YUV
Chroma subsampling                       : 4:2:0
Bit depth                                : 8 bits
Scan type                                : Progressive
Bits/(Pixel*Frame)                       : 0.188
Stream size                              : 1.18 GiB (84%)

Audio
ID                                       : 2
Format                                   : AC-3
Format/Info                              : Audio Coding 3
Commercial name                          : Dolby Digital
Codec ID                                 : A_AC3
Duration                                 : 2 h 44 min
Bit rate mode                            : Constant
Bit rate                                 : 192 kb/s
Channel(s)                               : 6 channels
Channel layout                           : L R C LFE Ls Rs
Sampling rate                            : 48.0 kHz
Stream size                              : 226 MiB (16%)


Thumbnail





Category:Movies > Bengali
Lang:Bengali  Bengali
Total Size:1.40 GB
Info Hash:76f92d65f62fb0c06eb779c5cb9ae21d27071670
Added By:CyberTron
Date Added:09-11-2018 18:49:17
Views:109
Hits:13

Download Torrent

Ratings:Not Yet Rated (Log in to rate it)

  


Tracker:
udp://tracker.trackerfix.com:80/announce


File List: 


Comments

No comments still posted

Powered by 10 Hamsters v2-svn -|- Page Generated In 0.405226 secs.
-|- RSS FEED
Theme By: Nikkbu