[Login] or [Signup]
Login
Username:
Password:
[Signup]
[Recover Account]


Poll


You must be logged in to view polls



Torrent Details For " Dujone (2009) Bengali Movie - HDTV Rip [Mp4 - AAC3(2Ch)] - 850 MB"

Dujone (2009) Bengali Movie - HDTV Rip [Mp4 - AAC3(2Ch)] - 850 MB

Download this torrent | Magnet Download
Health:
Seeds: 16
Leechers: 14
Completed:
Last Checked: 10-11-2018 11:32:20
External Torrent
Update Stats
Download Magnet


Poster


iMDB
Title: Dujone
Year: 2009
Votes: 83
Rating: 5.9/10
Language: Bengali
Director: Rajib Biswas
Writing By: Maloy Banerjee,
Produced By: Ashok Kumar Dhanuka,
Music: Jeet Gannguli
Cast:
Arun Bannerjee as
Seema Biswas as
Srabanti Chatterjee as
Debesh Roy Chowdhury as
Dev as
Arijit Dutt as
Kharaj Mukherjee as


Watch-Free-HD     Download

Details
Name: Dujone (2009) Bengali Movie - HDTV Rip [Mp4 - AAC3(2Ch)] - 850 MB
Description:
    Dujone (2009) Bengali Movie - HDTV Rip
[Mp4 - AAC3(2Ch)] - 850 MB
 





General
Format                                   : MPEG-4
Format profile                           : Base Media
Codec ID                                 : isom (isom)
File size                                : 850 MiB
Duration                                 : 2 h 40 min

Video
ID                                       : 1
Format                                   : AVC
Format/Info                              : Advanced Video Codec
Format profile                           : [email protected]
Format settings                          : CABAC / 4 Ref Frames
Format settings, CABAC                   : Yes
Format settings, RefFrames               : 4 frames
Codec ID                                 : avc1
Codec ID/Info                            : Advanced Video Coding
Duration                                 : 2 h 40 min
Bit rate                                 : 611 kb/s
Maximum bit rate                         : 2 928 kb/s
Width                                    : 640 pixels
Height                                   : 272 pixels
Display aspect ratio                     : 2.35:1
Frame rate mode                          : Constant
Frame rate                               : 25.000 FPS
Color space                              : YUV
Chroma subsampling                       : 4:2:0
Bit depth                                : 8 bits
Scan type                                : Progressive
Bits/(Pixel*Frame)                       : 0.140
Stream size                              : 700 MiB (82%)

Audio
ID                                       : 2
Format                                   : AAC LC SBR
Commercial name                          : HE-AAC
Format settings                          : Explicit
Codec ID                                 : mp4a-40-2
Duration                                 : 2 h 40 min
Bit rate mode                            : Variable
Bit rate                                 : 128 kb/s
Maximum bit rate                         : 137 kb/s
Channel(s)                               : 6 channels
Channel layout                           : C L R Ls Rs LFE
Sampling rate                            : 48.0 kHz
Stream size                              : 146 MiB (17%)


Thumbnail




Category:Movies > Bengali
Lang:Bengali  Bengali
Total Size:850.11 MB
Info Hash:c6d8431dc1884f44fe6a9d3e2c116fd5f471ff6d
Added By:CyberTron
Date Added:09-11-2018 18:05:37
Views:68
Hits:8

Download Torrent

Ratings:Not Yet Rated (Log in to rate it)

  


Tracker:
udp://tracker.trackerfix.com:80/announce


File List: 


Comments

No comments still posted

Powered by 10 Hamsters v2-svn -|- Page Generated In 0.520724 secs.
-|- RSS FEED
Theme By: Nikkbu