[Login] or [Signup]
Login
Username:
Password:
[Signup]
[Recover Account]


Poll


You must be logged in to view polls



Torrent Details For "Paltan (2018 - Battalion) Hindi Movie - HDRip[Mp4 - AAC3(2Ch)] - 850 MB"

Paltan (2018 - Battalion) Hindi Movie - HDRip[Mp4 - AAC3(2Ch)] - 850 MB

Download this torrent | Magnet Download
Health:
Seeds: 42
Leechers: 110
Completed: 19 
Last Checked: 10-11-2018 05:58:26
External Torrent
Update Stats
Download Magnet


Poster


iMDB
Title: Paltan
Year: 2018
Runtime: 150 minutes
Language: Hindi
All Genres: Drama, History, War
Director: J.P. Dutta

Produced By: J.P. Dutta,Varun Gupta,Shariq Patel,Ajay R. Yadav,
Music: Sanjoy Chowdhury
Cast:
Jackie Shroff as Maj. Gen. Sagat Singh
Arjun Rampal as Lt. Col. Rai Singh Yadav
Sonu Sood as Maj. Bishen Singh
Gurmeet Choudhary as Capt. Prithvi Singh Dagar
Abdul Quadir Amin as Army Officer
Harshvardhan Rane as Maj. Harbhajan Singh
Siddhant Kapoor as
Luv Sinha as
Abhilash Chaudhary as Army Officer
Bijou Thaangjam as Chinese Officer
Trailers:
Paltan trailer


Watch-Free-HD     Download

Details
Name:Paltan (2018 - Battalion) Hindi Movie - HDRip[Mp4 - AAC3(2Ch)] - 850 MB
Description:
   Paltan (2018 - Battalion) Hindi Movie -
HDRip[Mp4 - AAC3(2Ch)] - 850 MB
 






General
Format                                   : MPEG-4
Format profile                           : Base Media
Codec ID                                 : isom (isom)
File size                                : 850 MiB
Duration                                 : 2 h 43 min

Video
ID                                       : 1
Format                                   : AVC
Format/Info                              : Advanced Video Codec
Format profile                           : [email protected]
Format settings                          : CABAC / 4 Ref Frames
Format settings, CABAC                   : Yes
Format settings, RefFrames               : 4 frames
Codec ID                                 : avc1
Codec ID/Info                            : Advanced Video Coding
Duration                                 : 2 h 43 min
Bit rate                                 : 642 kb/s
Maximum bit rate                         : 3 664 kb/s
Width                                    : 640 pixels
Height                                   : 272 pixels
Display aspect ratio                     : 2.35:1
Frame rate mode                          : Constant
Frame rate                               : 25.000 FPS
Color space                              : YUV
Chroma subsampling                       : 4:2:0
Bit depth                                : 8 bits
Scan type                                : Progressive
Bits/(Pixel*Frame)                       : 0.148
Stream size                              : 753 MiB (89%)

Audio
ID                                       : 2
Format                                   : AAC LC SBR
Commercial name                          : HE-AAC
Format settings                          : Explicit
Codec ID                                 : mp4a-40-2
Duration                                 : 2 h 43 min
Bit rate mode                            : Variable
Bit rate                                 : 79.8 kb/s
Maximum bit rate                         : 87.2 kb/s
Channel(s)                               : 6 channels
Channel layout                           : C L R Ls Rs LFE
Sampling rate                            : 48.0 kHz
Stream size                              : 93.6 MiB (11%)


Thumbnail



Category:Movies > Bollywood
Lang:Hindi
Total Size:850.36 MB
Info Hash:04e82f28d557fad12426764d201c7d1a15bdaa32
Added By:CyberTron
Date Added:09-11-2018 17:45:42
Views:305
Hits:35

Download Torrent

Ratings:Not Yet Rated (Log in to rate it)

  


Tracker:
udp://tracker.trackerfix.com:80/announce


File List: 


Comments

No comments still posted

Powered by 10 Hamsters v2-svn -|- Page Generated In 0.595609 secs.
-|- RSS FEED
Theme By: Nikkbu