[Login] or [Signup]
Login
Username:
Password:
[Signup]
[Recover Account]


Poll


You must be logged in to view polls



Torrent Details For "Rick.and.Morty.S03E03.Pickle.Rick.720p.AMZN.WEBRip.DDP5.1.x264-QOQ [HDSector]"

Rick.and.Morty.S03E03.Pickle.Rick.720p.AMZN.WEBRip.DDP5.1.x264-QOQ [HDSector]

Download this torrent | Magnet Download
Health:
Seeds: 1,982
Leechers: 803
Completed: 16,520 
Last Checked: 07-08-2017 16:55:36
External Torrent
Update Stats
Download Magnet


Poster


iMDB
Imdb Picture Title: Rick and Morty
Year: 2013
Runtime: 22 minutes
Votes: 138461
Rating: 9.3/10
Language: English
Country: USA
All Genres: Animation, Adventure, Comedy, Sci-Fi
Plot Outline: An animated series that follows the exploits of a super scientist and his not so bright grandson.
Tagline: Science makes sense, family doesn't.
Director: Pete Michels
Wesley Archer
Bryan Newton
Dominic Polcino
John Rice
Stephen Sandoval
Juan Jose Meza-Leon
Jeff Myers
Justin Roiland
Anthony Chun
Writing By: Dan Harmon,Justin Roiland,Eric Acosta,Tom Kauffman,Wade Randolph,Mike McMahan,Matt Roller,Brian Wysol,David Phillips,Ryan Ridley,Sarah Carbiener,Erica Rosbe,Jane Becker,Jessica Gao,Abed Gheith,Rashad Gheith,Dan Guterman,Rich Fulcher,Alex Rubens,
Produced By: Dan Harmon,Justin Roiland,Delna Bhesania,Keith Crofford,Ollie Green,Mike Lazzo,J. Michael Mendel,Barry Ward,Ryan Ridley,James Fino,Joe Russo,Sydney Ryan,Dan Guterman,Alex Rubens,Kenny Micka,Mike McMahan,
Music: Ryan Elder Jason Nesmith
Plot:

An animated series on adult-swim about the infinite adventures of Rick, a genius alcoholic and careless scientist, with his grandson Morty, a 14 year-old anxious boy who is not so smart, but always tries to lead his grandfather with his own morale compass. Together, they explore the infinite universes; causing mayhem and running into trouble.

- Written by Ruben Galaviz

An animated series that follows the exploits of a super scientist and his not so bright grandson.

- Written by Anonymous
Cast:
Justin Roiland as Rick Sanchez
Chris Parnell as Jerry Smith
Spencer Grammer as Summer Smith
Sarah Chalke as Beth Smith
Kari Wahlgren as Jessica
Ryan Ridley as Additional Voices
Tom Kenny as Squanchy
Brandon Johnson as Mr. Goldenfold
Maurice LaMarche as Abradolph Lincler
Dan Harmon as Birdperson
Trailers:
Official Season 2 Trailer
Season 3 Trailer


Watch-Free-HD     Download

Details
Name:Rick.and.Morty.S03E03.Pickle.Rick.720p.AMZN.WEBRip.DDP5.1.x264-QOQ [HDSector]
Description:
Video
ID                                       : 1
Format                                   : AVC
Format/Info                              : Advanced Video Codec
Format profile                           : [email protected]
Format settings, CABAC                   : Yes
Format settings, ReFrames                : 5 frames
Codec ID                                 : V_MPEG4/ISO/AVC
Duration                                 : 23mn 25s
Bit rate mode                            : Variable
Bit rate                                 : 1 125 Kbps
Maximum bit rate                         : 4 500 Kbps
Width                                    : 1 280 pixels
Height                                   : 720 pixels
Display aspect ratio                     : 16:9
Frame rate mode                          : Constant
Frame rate                               : 23.976 (24000/1001) fps
Color space                              : YUV
Chroma subsampling                       : 4:2:0
Bit depth                                : 8 bits
Scan type                                : Progressive
Bits/(Pixel*Frame)                       : 0.051
Stream size                              : 188 MiB (64%)
Default                                  : Yes
Forced                                   : No
Color range                              : Limited
Color primaries                          : BT.709
Transfer characteristics                 : BT.709
Matrix coefficients                      : BT.709

Audio
ID                                       : 2
Format                                   : E-AC-3
Format/Info                              : Audio Coding 3
Format settings, Endianness              : Big
Codec ID                                 : A_EAC3
Duration                                 : 23mn 25s
Bit rate mode                            : Constant
Bit rate                                 : 640 Kbps
Channel(s)                               : 6 channels
Channel positions                        : Front: L C R, Side: L R, LFE
Sampling rate                            : 48.0 KHz
Frame rate                               : 187.500 fps (256 spf)
Compression mode                         : Lossy
Stream size                              : 107 MiB (36%)
Language                                 : English
Default                                  : Yes
Forced                                   : No

Text
ID                                       : 3
Format                                   : UTF-8
Codec ID                                 : S_TEXT/UTF8
Codec ID/Info                            : UTF-8 Plain Text
Duration                                 : 23mn 15s
Bit rate                                 : 100 bps
Count of elements                        : 558
Stream size                              : 17.1 KiB (0%)
Language                                 : English
Default                                  : No
Forced                                   : No


Category:TV > Hollywood
Lang:English  English
Total Size:295.99 MB
Info Hash:315f80d3443548e1082cea688f63692271562fc4
Added By:SULTAN
Date Added:07-08-2017 16:55:18
Views:66
Hits:19

Download Torrent

Ratings:Not Yet Rated (Log in to rate it)


Tracker:
http://tracker.trackerfix.com:80/announce


File List: 


Comments

No comments still posted

Powered by 10 Hamsters v2-svn -|- Page Generated In 0.489205 secs.
-|- RSS FEED
Theme By: Nikkbu