[Login] or [Signup]
Login
Username:
Password:
[Signup]
[Recover Account]


Poll


You must be logged in to view polls



Torrent Details For "Ray.Donovan.S05E01.1080p.WEBRip.x264-STRiFE [HDSector]"

Ray.Donovan.S05E01.1080p.WEBRip.x264-STRiFE [HDSector]

Download this torrent | Magnet Download
Health:
Seeds: 494
Leechers: 300
Completed: 3,466 
Last Checked: 07-08-2017 16:53:45
External Torrent
Update Stats
Download Magnet


Poster


iMDB
Imdb Picture Title: Ray Donovan
Year: 2013
Runtime: 60 minutes
Votes: 53341
Rating: 8.3/10
Language: English
Country: USA
All Genres: Crime, Drama
Plot Outline: Ray Donovan, a professional "fixer" for the rich and famous in LA, can make anyone's problems disappear except those created by his own family.
Tagline: Save yourself (Season 4)
Director: Michael Uppendahl
John Dahl
Tucker Gates
Daniel Attias
Colin Bucksey
David Hollander
Michael Apted
Lesli Linka Glatter
Guy Ferland
Allen Coulter
Phil Abraham
Liev Schreiber
Daniel Minahan
Jeremy Podeswa
Greg Yaitanes
Ed Bianchi
Tricia Brock
Robert McLachlan
Daisy von Scherler Mayer
James Whitmore Jr.
Stephen Williams
Zetna Fuentes
Writing By: Ann Biderman,David Hollander,Miki Johnson,David Sonnenborn,Brett Johnson,Sean Conway,Chad Feehan,William Wheeler,Gina Welch,Ron Nyswaner,Michael Tolkin,Lenore Zion,Mike Binder,Alyona Khmara,Cheo Hodari Coker,Rob Fresco,Karl Taro Greenfeld,
Produced By: David Hollander,John H. Radulovic,Lou Fusaro,Vanessa Wilson,Tom Keefe,Mark Gordon,Jason Weinberg,Bryan Zuriff,Ann Biderman,Katie O'Hara,Brett Johnson,Michael Tolkin,Liev Schreiber,Chad Feehan,Sean Conway,Brandon Krzyminski,Ron Nyswaner,Cheo Hodari Coker,Colin Bucksey,Anthony D'Esposito,Ivey Hardin,Sarah Caplan,Mike Binder,Rob Fresco,Edward Saxon,William Wheeler,Alan Jackson,Allen Coulter,
Music: Marcelo Zarvos
Plot:

Ray Donovan, a professional "fixer" for the rich and famous in LA, can make anyone's problems disappear except those created by his own family.

- Written by vhavnal
Cast:
Liev Schreiber as Ray Donovan
Paula Malcomson as Abby Donovan
Eddie Marsan as Terry Donovan
Dash Mihok as Bunchy Donovan
Steven Bauer as Avi
Katherine Moennig as Lena
Pooch Hall as Daryll
Kerris Dorsey as Bridget Donovan
Devon Bagby as Conor Donovan
Jon Voight as Mickey Donovan
Trailers:
Season 4 Teaser
Season 5 Trailer
Ray Donovan


Watch-Free-HD     Download

Details
Name:Ray.Donovan.S05E01.1080p.WEBRip.x264-STRiFE [HDSector]
Description:
Video
ID                                       : 1
Format                                   : AVC
Format/Info                              : Advanced Video Codec
Format profile                           : [email protected]
Format settings, CABAC                   : Yes
Format settings, ReFrames                : 4 frames
Codec ID                                 : V_MPEG4/ISO/AVC
Duration                                 : 54mn 49s
Bit rate                                 : 6 142 Kbps
Width                                    : 1 920 pixels
Height                                   : 1 080 pixels
Display aspect ratio                     : 16:9
Frame rate mode                          : Constant
Frame rate                               : 23.976 (24000/1001) fps

Audio
ID                                       : 2
Format                                   : E-AC-3
Format/Info                              : Audio Coding 3
Format settings, Endianness              : Big
Codec ID                                 : A_EAC3
Duration                                 : 54mn 49s
Bit rate mode                            : Constant
Bit rate                                 : 640 Kbps
Channel(s)                               : 6 channels
Channel positions                        : Front: L C R, Side: L R, LFE
Sampling rate                            : 48.0 KHz
Frame rate                               : 187.500 fps (256 spf)
Compression mode                         : Lossy
Stream size                              : 251 MiB (9%)
Language                                 : English
Default                                  : Yes
Forced                                   : No

Text
ID                                       : 3
Format                                   : UTF-8
Codec ID                                 : S_TEXT/UTF8
Codec ID/Info                            : UTF-8 Plain Text
Duration                                 : 52mn 48s
Bit rate                                 : 67 bps
Count of elements                        : 1024
Stream size                              : 26.2 KiB (0%)
Language                                 : English
Default                                  : No
Forced                                   : No


Category:TV > Hollywood
Lang:English  English
Total Size:2.60 GB
Info Hash:d89eda61378d4c7481172ae9d885583e71788c77
Added By:SULTAN
Date Added:07-08-2017 16:53:39
Views:59
Hits:18

Download Torrent

Ratings:Not Yet Rated (Log in to rate it)


Tracker:
http://tracker.trackerfix.com:80/announce


File List: 


Comments

No comments still posted

Powered by 10 Hamsters v2-svn -|- Page Generated In 0.283857 secs.
-|- RSS FEED
Theme By: Nikkbu