[Login] or [Signup]
Login
Username:
Password:
[Signup]
[Recover Account]


Poll


You must be logged in to view polls



Torrent Details For "Insecure.S02E03.Hella.Open.720p.AMZN.WEBRip.DDP5.1.x264-NTb [HDSector]"

Insecure.S02E03.Hella.Open.720p.AMZN.WEBRip.DDP5.1.x264-NTb [HDSector]

Download this torrent | Magnet Download
Health:
Seeds: 117
Leechers: 29
Completed: 1,380 
Last Checked: 07-08-2017 16:48:35
External Torrent
Update Stats
Download Magnet


Poster


iMDB
Imdb Picture Title: Insecure
Year: 2016
Runtime: 30 minutes
Votes: 4309
Rating: 7.7/10
Language: English
Country: USA
All Genres: Comedy
Plot Outline: Follows the awkward experiences and racy tribulations of a modern-day African-American woman.
Tagline: She's trying hard AF.
Director: Melina Matsoukas
Kevin Bray
Debbie Allen
Cecile Emeke
Tina Mabry
Prentice Penny
Writing By: Issa Rae,Larry Wilmore,Natasha Rothwell,Ben Cory Jones,Laura Kittrell,Amy Aniobi,Ben Dougan,Dayna Lynne North,Prentice Penny,
Produced By: Melina Matsoukas,Prentice Penny,Issa Rae,Jim Klever-Weis,Amy Aniobi,Dave Becky,Jonathan Berry,Deniese Davis,Shana Fischer Huber,Michael Rotenberg,Larry Wilmore,Anna Dokoza,Ben Dougan,Regina Y. Hicks,Dayna Lynne North,Erin Mitchell,
Music: Raphael Saadiq
Plot:

Follows the awkward experiences and racy tribulations of a modern-day African-American woman.

- Written by Anon
Cast:
Issa Rae as Issa Dee
Yvonne Orji as Molly Carter
Amanda Seales as Tiffany DuBois
Natasha Rothwell as Kelli
Jay Ellis as Lawrence
Lisa Joyce as Frieda
Mason McCulley as Ken
Veronica Mannion as Kitty
Sujata Day as Sarah
Neil Brown Jr. as Chad
Trailers:
Season Two Trailer
Season 2 Tease
Tomorrow Night on HBO
Insecure--Official Trailer


Watch-Free-HD     Download

Details
Name:Insecure.S02E03.Hella.Open.720p.AMZN.WEBRip.DDP5.1.x264-NTb [HDSector]
Description:
Video
ID                                       : 1
Format                                   : AVC
Format/Info                              : Advanced Video Codec
Format profile                           : [email protected]
Format settings, CABAC                   : Yes
Format settings, ReFrames                : 5 frames
Codec ID                                 : V_MPEG4/ISO/AVC
Duration                                 : 30mn 58s
Bit rate mode                            : Variable
Bit rate                                 : 3 459 Kbps
Maximum bit rate                         : 4 500 Kbps
Width                                    : 1 280 pixels
Height                                   : 720 pixels
Display aspect ratio                     : 16:9
Frame rate mode                          : Constant
Frame rate                               : 23.976 (24000/1001) fps
Color space                              : YUV
Chroma subsampling                       : 4:2:0
Bit depth                                : 8 bits
Scan type                                : Progressive
Bits/(Pixel*Frame)                       : 0.157
Stream size                              : 766 MiB (84%)
Default                                  : Yes
Forced                                   : No
Color range                              : Limited
Color primaries                          : BT.709
Transfer characteristics                 : BT.709
Matrix coefficients                      : BT.709

Audio
ID                                       : 2
Format                                   : E-AC-3
Format/Info                              : Audio Coding 3
Format settings, Endianness              : Big
Codec ID                                 : A_EAC3
Duration                                 : 30mn 58s
Bit rate mode                            : Constant
Bit rate                                 : 640 Kbps
Channel(s)                               : 6 channels
Channel positions                        : Front: L C R, Side: L R, LFE
Sampling rate                            : 48.0 KHz
Frame rate                               : 187.500 fps (256 spf)
Compression mode                         : Lossy
Delay relative to video                  : 12ms
Stream size                              : 142 MiB (16%)
Language                                 : English
Default                                  : Yes
Forced                                   : No

Text
ID                                       : 3
Format                                   : UTF-8
Codec ID                                 : S_TEXT/UTF8
Codec ID/Info                            : UTF-8 Plain Text
Duration                                 : 30mn 52s
Bit rate                                 : 104 bps
Count of elements                        : 714
Stream size                              : 23.7 KiB (0%)
Language                                 : English
Default                                  : No
Forced                                   : No


Category:TV > Hollywood
Lang:English  English
Total Size:908.61 MB
Info Hash:ab5cea37ee928008f7fe46d787a0232c0a3046a4
Added By:SULTAN
Date Added:07-08-2017 16:48:19
Views:70
Hits:29

Download Torrent

Ratings:Not Yet Rated (Log in to rate it)


Tracker:
http://tracker.trackerfix.com:80/announce


File List: 


Comments

No comments still posted

Powered by 10 Hamsters v2-svn -|- Page Generated In 0.271112 secs.
-|- RSS FEED
Theme By: Nikkbu